立即注册
 找回密码
 立即注册

扫一扫,访问微社区

用百度帐号登录

只需两步,快速登录

查看: 546|回复: 9

GFriend-MP4D(特别舞蹈版)(BugS!)[205M/810P/60帧/MKV/百度网盘][**版]

[复制链接]
发表于 2016-2-23 08:23:11 | 显示全部楼层 |阅读模式
7afb6155jw1f17pllwlhkj21kw3khx6p.jpg
General
Unique ID                      : 254291741634138504305522517772496684427 (0xBF4ECED7EE86F04E962728F69DA2458B)
Complete name                  : GFriend-Rough(特别舞蹈版).BugS![810P][无码版][60帧].mkv
Format                         : Matroska
Format version                 : Version 2
File size                      : 205 MiB
Duration                       : 3mn 32s
Overall bit rate mode          : Variable
Overall bit rate               : 8 099 Kbps
Encoded date                   : UTC 2016-02-21 22:26:58
Writing application            : mkvmerge v7.0.0 ('Where We Going') 32bit built on Jun  9 2014 15:08:34
Writing library                : libebml v1.3.0 + libmatroska v1.4.1

Video
ID                             : 1
Format                         : AVC
Format/Info                    : Advanced Video Codec
Format profile                 : High@L4.2
Format settings, CABAC         : Yes
Format settings, ReFrames      : 7 frames
Codec ID                       : V_MPEG4/ISO/AVC
Duration                       : 3mn 32s
Bit rate mode                  : Variable
Bit rate                       : 7 985 Kbps
Width                          : 1 440 pixels
Height                         : 812 pixels
Display aspect ratio           : 16:9
Frame rate mode                : Constant
Frame rate                     : 59.940 (60000/1001) fps
Standard                       : NTSC
Color space                    : YUV
Chroma subsampling             : 4:2:0
Bit depth                      : 8 bits
Scan type                      : Progressive
Bits/(Pixel*Frame)             : 0.114
Stream size                    : 201 MiB (98%)
Writing library                : x264 core 112
Encoding settings              : cabac=1 / ref=7 / deblock=1:-3:-1 / analyse=0x3:0x113 / me=umh / subme=7 / psy=1 / psy_rd=1.00:0.00 / mixed_ref=1 / me_range=30 / chroma_me=1 / trellis=1 / 8x8dct=1 / cqm=2 / deadzone=21,11 / fast_pskip=1 / chroma_qp_offset=-2 / threads=6 / sliced_threads=0 / slices=1 / nr=0 / decimate=1 / interlaced=0 / constrained_intra=0 / bframes=7 / b_pyramid=0 / b_adapt=1 / b_bias=0 / direct=1 / weightb=1 / open_gop=0 / weightp=2 / keyint=250 / keyint_min=25 / scenecut=40 / intra_refresh=0 / rc_lookahead=40 / rc=crf / mbtree=1 / crf=1.0 / qcomp=0.60 / qpmin=3 / qpmax=51 / qpstep=4 / vbv_maxrate=7985 / vbv_bufsize=7979 / crf_max=51.0 / nal_hrd=vbr / frame-packing=0 / ip_ratio=1.40 / aq=1:1.00
Default                        : Yes
Forced                         : No
Color range                    : Limited
Color primaries                : BT.709
Transfer characteristics       : BT.709
Matrix coefficients            : BT.709

Audio
ID                             : 2
Format                         : AAC
Format/Info                    : Advanced Audio Codec
Format profile                 : LC
Codec ID                       : A_AAC
Duration                       : 3mn 32s
Bit rate                       : 163 Kbps
Channel(s)                     : 2 channels
Channel positions              : Front: L R
Sampling rate                  : 48.0 KHz
Frame rate                     : 46.875 fps (1024 spf)
Compression mode               : Lossy
Stream size                    : 4.12 MiB (2%)
Default                        : Yes
Forced                         : No
游客,如果您要查看本帖隐藏内容请回复

发表于 2016-3-14 14:09:49 | 显示全部楼层
谢谢,看美女哦,哈哈
发表于 2016-7-9 15:36:00 | 显示全部楼层
反馈工单反馈给;发了;,不,b
发表于 2016-7-12 16:55:25 | 显示全部楼层
辛苦楼主了
发表于 2017-8-29 23:59:32 | 显示全部楼层
楼主辛苦了,谢谢首发之家!!
发表于 2017-10-8 03:37:19 | 显示全部楼层
楼主辛苦了,感谢首发之荚丁!
发表于 2019-1-2 14:19:04 | 显示全部楼层
我只是路过打酱油的
发表于 2020-2-22 23:30:39 | 显示全部楼层
感谢分享,下载品鉴!
发表于 3 天前 | 显示全部楼层
60帧就i是不一样啊i谢谢分享

您需要登录后才可以回帖 登录 | 立即注册 用百度帐号登录

本版积分规则

手机版

轻松易点,迅速到家!

官方微信

扫描二维码,即刻与小易亲密互动,还有劲爆优惠等你来拿!

订阅QQ邮件

第一手促销资讯,尊享邮件特惠商品,优惠不错过!

广告招商QQ:2295479776|小黑屋|手机版|首发之家论坛 |网站地图

GMT+8, 2020-3-29 20:52 , Processed in 0.204252 second(s), 28 queries , XCache On.

Powered by Discuz! X3.4

@ 2001-2013 Comsenz Inc.

快速回复 返回顶部 返回列表