立即注册
 找回密码
 立即注册

扫一扫,访问微社区

用百度帐号登录

只需两步,快速登录

查看: 544|回复: 15

[4K高清短片]巴西里约热内卢 - 甜面包山 2016[2160P/MP4/1.81GB]

[复制链接]
发表于 2016-8-13 09:43:12 | 显示全部楼层 |阅读模式
[4K高清短片]巴西里约热内卢 - 甜面包山 2016[2160P/MP4/1.81GB]
195153a6allx56idbor3rz.jpg

195202kl1sl8lifsletk2f.jpg 195202wy30fkmy2skke2jt.jpg 195203s1stdty033hyqx37.jpg 195203lz9mohhhloia6dlw.jpg 195203mr9k6z2y62kbp6dk.jpg 195204wbjvc1ibvjvbrucz.jpg 195209zkpkysvyhgdgvgsv.jpg 195209l3epn3dbr7g67bnb.jpg

General
Complete name : Sugarloaf Mountain - Rio de Janeiro - Brazil (4K).mp4
Format : MPEG-4
Format profile : Base Media
Codec ID : dash (isom/iso2/avc1/mp41)
File size : 1.81 GiB
Duration : 11 min
Overall bit rate : 22.0 Mbps
Writing application : Lavf56.25.101

Video
ID : 1
Format : AVC
Format/Info : Advanced Video Codec
Format profile : High@L5.1
Format settings, CABAC : No
Format settings, ReFrames : 2 frames
Codec ID : avc1
Codec ID/Info : Advanced Video Coding
Duration : 11 min
Bit rate : 21.9 Mbps
Width : 3840 pixels
Height : 2160 pixels
Display aspect ratio : 16:9
Frame rate mode : Constant
Frame rate : 25.000 FPS
Color space : YUV
Chroma subsampling : 4:2:0
Bit depth : 8 bits
Scan type : Progressive
Bits/(Pixel*Frame) : 0.106
Stream size : 1.80 GiB (99%)

Audio
ID : 2
Format : AAC
Format/Info : Advanced Audio Codec
Mode extension : LC
Codec ID : 40
Duration : 11 min
Bit rate mode : Constant
Bit rate : 126 kbps  
Channel(s) : 2 channels
Channel positions : Front: L R
Sampling rate : 44.1 KHz
Frame rate : 43.066 FPS (1024 spf)
Compression mode : Lossy
Stream size : 10.6 MiB (1%)
Default : Yes
Altternate group : 1

百度云
游客,如果您要查看本帖隐藏内容请回复



发表于 2016-8-16 19:35:02 | 显示全部楼层
李煜老师样片  链接: https://pan.baidu.com/s/1eSc8

发表于 2017-6-9 16:39:24 | 显示全部楼层
发给谁拉的世间法SDjaksl'gj
发表于 2017-9-17 20:11:14 | 显示全部楼层
楼主辛苦了,谢谢首发之家!!
发表于 2018-2-13 01:49:52 | 显示全部楼层
楼主辛苦了,谢谢首发之家!!
发表于 2020-3-12 00:03:25 | 显示全部楼层
确实无比的震撼美丽,难得难得
发表于 2020-4-18 09:38:38 | 显示全部楼层
11111111111111111111111111111111111111
发表于 2020-8-5 14:36:06 | 显示全部楼层
楼主辛苦了,谢谢首发之家!!
发表于 2020-8-8 09:12:00 | 显示全部楼层
楼主辛苦了,谢谢首发之家!!
您需要登录后才可以回帖 登录 | 立即注册 用百度帐号登录

本版积分规则

手机版

轻松易点,迅速到家!

官方微信

扫描二维码,即刻与小易亲密互动,还有劲爆优惠等你来拿!

订阅QQ邮件

第一手促销资讯,尊享邮件特惠商品,优惠不错过!

广告招商QQ:2295479776|小黑屋|手机版|首发之家论坛 |网站地图

GMT+8, 2020-12-1 09:57 , Processed in 0.097095 second(s), 25 queries , XCache On.

Powered by Discuz! X3.4

@ 2001-2013 Comsenz Inc.

快速回复 返回顶部 返回列表